Skip to main content

Alex Skolnick Trio

Alex Skolnick Trio
Download free music from Alex Skolnick Trio. Concerts in the Live Music Archive are available for download and streaming in formats including flac, mp3, and ogg vorbis.

Alex Skolnick Trio

14
RESULTS
rss


PART OF
Live Music Archive
Media Type
14
concerts
Year
1
2010
2
2009
3
2008
1
2007
1
2006
3
2005
More right-solid
Topics & Subjects
5
Jazz
3
Metal
2
Live concert
1
jazz
Collection
More right-solid
Creator
14
alex skolnick trio
SHOW DETAILS
up-solid down-solid
eye
Title
Date Published
Creator
Alex Skolnick Trio
Feb 28, 2010 Alex Skolnick Trio
etree
eye 2,216
favorite 2
comment 0
Alex Skolnick Trio 9:30 Club Washington, DC Feb 28, 2010 ** 16-bit/44.1khz ** 01 Song Of The Open Road 02 Detroit Rock City (1) 03 The Lizard 04 Tom Sawyer (2) 05 Electric Eye (3) (1) KISS (2) Rush (3) Judas Priest
Source: Schoeps CCM4 (DINa, DFC, clamped to balcony) > Marantz PMD661 (24/44.1)
Alex Skolnick Trio
Apr 24, 2009 Alex Skolnick Trio
etree
eye 1,582
favorite 2
comment 1
Alex Skolnick Trio Garfield Artworks Pittsburgh, PA 2009-04-24 Source: Nakamichi CM-700/CP-702 omnis 'actives' > Samson PM4 > Lunatec V3 (ANSR) > HP-120 @ 16/44.1 Transfer: HP-120 > USB > Soundforge 7.0 > CDWave > FLAC Mic Location/Setup: ~3ft back from stage lip, center, ~3ft, NOS t&t: AudBall 01. Still Lovin' You (Scorpions song) 02. Shades Of Grey 03. Detroit Rock City (Kiss song) 04. Lizard 05. Tom Sawyer (Rush song) 06. Oh Well (Fleetwood Mac) * 07. Last Day In...
favoritefavoritefavoritefavoritefavorite ( 1 reviews )
Source: Nakamichi CM-700/CP-702 omnis 'actives' > Samson PM4 > Lunatec V3 (ANSR) > HP-120 @ 16/44.1
Alex Skolnick Trio
Apr 24, 2009 Alex Skolnick Trio
etree
eye 2,971
favorite 5
comment 5
Alex Skolnick Trio Garfield Artworks Pittsburgh, PA 2009-04-24 Source: Nakamichi CM-1000/CP-101 cards (Sank p48) > Oade Concert Mod PMD-661 (-18db atten.) @ 24bit/44.1k Transfer: PMD-661 > USB > CDWave > Soundforge 7.0 > CDWave > FLAC Mic Location/Setup: ~3ft back from stage lip, center, ~3ft t&t: AudBall 01. Still Lovin' You (Scorpions song) 02. Shades Of Grey 03. Detroit Rock City (Kiss song) 04. Lizard 05. Tom Sawyer (Rush song) 06. Oh Well * (Fleetwood Mac) 07. Last...
favoritefavoritefavoritefavoritefavorite ( 5 reviews )
Source: Nakamichi CM-1000/CP-101 cards (Sank p48) > Oade Concert Mod PMD-661 (-18db atten.) @ 24bit/44.1k
Alex Skolnick Trio
Sep 7, 2008 Alex Skolnick Trio
etree
eye 2,392
favorite 2
comment 0
1. Intro 2. Dream On 3. Detroit Rock City 4. Detroit Rock City (part 2) 5. The Lizard 6. Electric Eye 7. Revelation (Mother Earth) 8. Tom Sawyer 9. Last Day in Paradise 10.Western Sabbath Stomp 11.No One Like You 12.Shades of Grey 13.Both Feet In 14.Scorch 15.Goodbye to Romance 16.War Pigs
Topic: jazz
Alex Skolnick Trio
Mar 21, 2008 Alex Skolnick Trio
etree
eye 2,135
favorite 0
comment 1
TRACK 01 AUDIO TITLE "Intro" PERFORMER "Alex Skolnick Trio" INDEX 01 00:00:00 TRACK 02 AUDIO TITLE "Still Loving You" PERFORMER "Alex Skolnick Trio" INDEX 01 02:58:00 TRACK 03 AUDIO TITLE "Mercury Retrograde" PERFORMER "Alex Skolnick Trio" INDEX 01 13:58:00 TRACK 04 AUDIO TITLE "Detroit Rock City" PERFORMER "Alex Skolnick Trio" INDEX 01 19:05:00 TRACK 05 AUDIO TITLE "The Lizard" PERFORMER "Alex...
favoritefavoritefavorite ( 1 reviews )
Topics: Jazz, Metal
Alex Skolnick Trio
Mar 15, 2008 Alex Skolnick Trio
etree
eye 1,619
favorite 0
comment 0
intro 0:00 Still Loving You 2:34 Mercury Retrograde 11:00 Detroit Rock City 16:16 The Lizard 26:00 Tom Sawyer 33:21 Last Day in Paradise In 41:59 Western Sabbath Stomp 48:00
Topics: Jazz, Metal
Source: aud
Alex Skolnick Trio
Apr 11, 2007 Alex Skolnick Trio
etree
eye 4,918
favorite 1
comment 0
01 Still Loving You, 02 Mercury Retrograde, 03 Shades Of Grey, 04 The Lizard, 05 Tom Sawyer, 06 Revelation Mother Earth, 07 Electric Eye, 08 Transformation, 09 Last Day In Paradise, 10 Western Sabbath Stomp
Source: audio-technica 4041's > Segue Dogstar Silver XLR > Edirol UA-5 [Oade P-mod] > Creative Nomad JB3 [44.1]
Alex Skolnick Trio
Aug 31, 2006 Alex Skolnick Trio
etree
eye 5,027
favorite 3
comment 0
Setlist Set 1 Still Loving You Transformation Fear of Flying Western Sabbath Practique lo que predicas Detroit Rock City Set 2 Tom Sawyer The Lizard Goodbye to Romance Both Feet In Electric Eye War Pigs First time Western Sabbath, The Lizard, and Practique lo que Predicas were ever played live! 08-31-2006 Schenectady NY, The Van Dyck Restaurant 1. Still Loving You 1. Still Loving You 1. Still Loving You 1. Tom Sawyer 1. Tom Sawyer 1. Tom Sawyer 2. The Lizard 2. The Lizard 2. The Lizard 2....
Source: AUD > rh1 minidisc
Alex Skolnick Trio
Aug 19, 2005 Alex Skolnick Trio
etree
eye 8,276
favorite 8
comment 2
1) Still Loving You> 2) Transformation 3) Fear of Flying 4) Detroit Rock City 5) Don't Talk to Strangers 6) Scorch 7) Both Feet In 8) Electric Eye
favoritefavoritefavoritefavoritefavorite ( 2 reviews )
Topic: Live concert
Source: AKG ck63>A61>JW mod c460b>MiniMe>ODL-312>JB3 (wav 44.1/16)
Alex Skolnick Trio
Aug 16, 2005 Alex Skolnick Trio
etree
eye 1,607
favorite 0
comment 0
Source: AUD > minidisc
Alex Skolnick Trio
Jun 17, 2005 Alex Skolnick Trio
etree
eye 3,017
favorite 0
comment 3
still loving you transformation fear of flying detroit rock city electric eye
favoritefavoritefavoritefavoritefavorite ( 3 reviews )
Topic: Live concert
Source: Schoeps CMC 6/mk21 > Lunatec V3 @ 24/48 > Sound Forge 6.0 @ 24/48 > FLAC
Alex Skolnick Trio
Oct 14, 2004 Alex Skolnick Trio
etree
eye 3,320
favorite 2
comment 0
Alex Skolnick Trio Live from The Montage Grille - Rochester, NY 10-14-04 Band Alex Skolnick - Guitars Nathan Peck - Bass Matt Zebroski - Drums Setlist CD1 Still Loving You Alex's Remarks Transformation Money Dont Talk To Strangers Alex's Remarks Detroit Rock City CD2 Electric Eye Alex's Remarks Fear Of Flying Scorch Alex's Remarks Blackout Encore Applause War Pigs
Topic: Jazz
Source: aud
Alex Skolnick Trio
Sep 6, 2003 Alex Skolnick Trio
etree
eye 1,867
favorite 0
comment 0
1. Highway Star 2. Still Loving You 3. Detroit Rock City 4. Goodbye to Romance 5. Dream On 6. War Pigs
Topics: Jazz, Metal
Source: AUD
Alex Skolnick Trio
Sep 13, 2002 Alex Skolnick Trio
etree
eye 2,102
favorite 0
comment 0
Alex Skolnick Trio Elbo Room Chicago, Illinois USA 2002-09-13 Recorded by: mlvcarlos Aud > Core Sound Binaural Mics > Sony MZ-R70 > Sound Forge 9.0 > Traders Little Helper > Flac (level 6) Alex Skolnick - Guitar John Graham-Davis - Acoustic Bass Matt Zebroski - Drums Tracks: 01. No One Like You (Scorpions) 9:07 02. Detroit Rock City (Kiss) 9:35 03. Goodbye To Romance (Ozzy Osbourne) 9:32 04. Still Loving You (Scorpions) 14:51 05. Pinball Wizard (The Who) 11:15 06. Highway Star...
Topic: Jazz